#TITLE:Utopia;
#SUBTITLE:;
#ARTIST:☺;
#TITLETRANSLIT:;
#SUBTITLETRANSLIT:;
#ARTISTTRANSLIT:;
#CREDIT:Tony;
#BANNER:Utopia-bn.jpg;
#BACKGROUND:Utopia-bg.jpg;
#LYRICSPATH:;
#CDTITLE:utopia.png;
#MUSIC:Utopia.ogg;
#OFFSET:-1.480;
#SAMPLESTART:41.000;
#SAMPLELENGTH:20.000;
#SELECTABLE:YES;
#DISPLAYBPM:166.000;
#BPMS:0.000=166.000,320.000=148.540,320.500=144.460,321.000=134.180,321.500=130.000,322.000=120.000,322.500=110.000,323.000=98.600,323.500=88.000;
#STOPS:;
#BGCHANGES:;
// cache tags:
#FIRSTBEAT:12.000;
#LASTBEAT:328.000;
#SONGFILENAME:Songs/Music V.I.P ^_^/Utopia/Utopia.sm;
#HASMUSIC:1;
#HASBANNER:1;
#MUSICLENGTH:124.525;
// end cache tags

//---------------dance-single - ITG style----------------
#NOTES:
     dance-single:
     ITG style:
     Edit:
     10:
     0.855,1.000,0.410,0.787,0.554,596.000,51.000,98.000,0.000,4.000:
0000
0000
0000
0000
,
0000
0000
0000
0000
,
0000
0000
0000
0000
,
1000
0000
0001
0100
0001
0000
1000
0000
0100
0000
1000
0000
0010
0000
0200
0000
,
0000
0300
0010
0000
0000
0000
1000
0010
1000
0000
0100
0000
0010
0000
0001
0000
,
2000
0000
0001
3000
0100
0000
0001
0000
0010
0000
0100
0000
1000
0000
0002
0000
,
0000
0003
0010
0000
0001
0000
0100
0000
1001
0000
0100
0000
1001
0000
0100
0000
,
0002
1003
0010
1000
0001
0100
1000
0200
,
0000
0300
0001
0000
0000
0000
0010
0001
0010
0000
0100
0000
0010
0000
0001
0000
,
2000
0000
0001
3000
0100
0000
0001
0000
1000
0000
0100
0000
0001
0000
0200
0000
,
0000
0300
1000
0000
0010
0000
1000
0000
0001
0000
0010
0000
0100
0000
1000
0000
,
0020
0031
0010
1000
0100
1000
0100
0020
,
0030
0000
0001
0000
0000
0000
1000
0001
0100
0000
0010
0000
0100
0000
0010
0000
,
2000
3100
1000
0001
0100
0001
0010
0002
,
0000
0003
1000
0000
0010
0000
0100
0000
0001
0000
0100
0000
0001
0000
1000
0000
,
0002
0000
0000
0003
1000
0000
0000
0000
0100
0000
0010
0000
0001
0000
2000
0000
,
3000
0001
0010
0000
0001
1000
0010
1000
,
0002
0003
0001
0100
0001
0010
0100
2000
,
0000
3000
0010
0000
1000
0000
0010
1000
0000
0000
0010
1000
0001
0000
0100
0000
,
2002
3003
0220
0000
0000
0330
2020
0000
,
0000
0000
0000
3030
0202
0000
0000
0000
0303
0000
0002
0000
0020
0003
2000
0000
,
0000
0000
0000
3000
0002
0000
0000
0030
0000
0000
0200
0000
2000
0003
0000
3300
,
0200
0000
0000
0000
0002
0000
0000
0000
0003
0000
2000
3000
0020
0300
2030
0000
,
3100
0000
0000
0010
1000
0000
0001
1000
0100
0000
1000
0010
0100
0000
0001
0010
,
0100
1000
0001
0100
0010
0000
0100
0010
1000
0000
0001
1000
0000
0000
0010
0000
,
0010
0000
0000
0010
1000
0000
0100
0010
0001
0000
0100
0001
1000
0100
1000
0001
,
0100
0010
1000
0010
1000
0000
0001
0100
0001
1000
0010
1000
0100
0000
0100
0000
,
0001
0000
0000
0000
0001
0000
0000
0000
0000
0001
0000
0000
0000
0000
0001
0000
0000
0000
0000
0001
0000
0000
0000
0000
0001
0000
0000
0000
0000
0001
0000
0000
,
0001
0000
0000
0000
0001
0000
0000
0000
0001
0000
0001
0000
0001
0000
0000
0002
,
0000
0003
0001
0000
0001
0001
0000
0001
,
0000
0000
0001
0000
0000
0000
0001
0000
0000
0000
0001
0000
0000
0000
0001
0000
0000
0000
0001
0000
0000
0001
0000
0000
,
0001
0000
0000
0000
0001
0000
0000
0000
0000
0001
0000
0000
0000
0000
0001
0000
0000
0000
0000
0001
0000
0000
0000
0000
0001
0000
0000
0000
0000
0001
0000
0000
,
0001
0000
0000
0000
0001
0000
0000
0000
0001
0000
0001
0000
0001
0000
0000
0002
,
0000
0003
0001
0000
0001
0001
0000
0001
,
0000
0000
0001
0000
0000
0000
0001
0000
0000
0000
0001
0000
0000
0000
0001
0000
0000
0000
0001
0000
0000
0001
0000
0000
,
1001
1000
1000
1000
,
1000
0000
1000
0000
1000
0000
1000
1000
,
1000
1000
1000
1000
,
1000
0000
1000
0000
1000
0000
1000
1000
,
1001
0000
0000
0000
0001
0000
0000
0000
1000
0001
0000
0000
0000
0000
0001
0000
1000
0000
0000
0001
0000
0000
0000
0000
1001
0000
0000
0000
0000
0001
0000
0000
,
1001
0000
0000
0000
1001
0000
0000
0000
1001
0000
0001
0000
1001
0000
1000
0002
,
1000
0003
0000
0000
1001
0000
0000
0000
1001
0000
0001
0000
1000
0000
0001
0000
,
1000
0000
0001
0000
0000
0000
1001
0000
0000
0000
0001
0000
1000
0000
0001
0000
0000
0000
1001
0000
0000
1001
0000
0000
,
0020
0000
0000
0030
1000
0010
0200
0000
0002
0300
0000
0000
0023
0000
0000
0000
,
2000
0000
0000
0000
0000
0000
0000
0000
0030
0000
0020
0000
3002
0030
0200
0000
,
2003
0000
0000
0000
0000
0000
0300
0000
0200
3000
0020
0300
2000
0030
0200
0000
,
3002
0000
0000
0000
0000
0000
0000
0000
0000
0000
0000
0000
0000
0000
0000
0000
0303
0000
0000
0001
0100
0000
0000
0000
0000
0010
0001
0000
0000
0000
0000
0000
,
2000
0000
0000
0000
3010
0100
0020
0000
0002
0000
0000
0033
0001
0010
0000
0000
,
2000
0000
0000
0000
0000
0000
0000
0000
3000
0000
0010
0000
0010
1000
0000
0000
,
2000
0000
0000
0000
0000
0000
0200
3000
0010
0000
0010
0000
1000
0000
2300
0000
,
0200
0000
3300
0000
0000
0000
0000
0000
1000
0001
1000
0001
1000
0001
1000
0001
,
0100
0001
1000
0001
0010
0001
1000
0010
1000
0100
1000
0001
0100
0010
0100
0000
,
0100
0010
1000
0010
0100
0010
0100
0001
0100
0010
0100
0001
1000
0100
0010
0000
,
0010
0001
0010
0100
0010
0001
0100
0001
1000
0001
0100
0001
1000
0001
1000
0000
,
1000
0010
1000
0001
1000
0100
1000
0001
0010
0001
1000
0001
1000
0000
1000
0000
,
1000
0000
1000
0100
0010
0001
1000
0001
1000
0010
1000
0001
1000
0100
1000
0000
,
1000
0001
1000
0001
0010
0001
1000
0010
1000
0001
1000
0001
0100
0010
0100
0000
,
0100
0001
1000
0010
0100
0010
0100
0001
0100
0010
0100
0001
1000
0100
0010
0000
,
0010
0001
0010
0100
0010
0001
1000
0001
0010
0001
1000
0001
0100
0001
1000
0000
,
1001
0000
0000
0100
0010
0000
0100
0000
,
0100
0000
0000
0000
2002
3003
0220
0330
,
1001
0000
0000
0000
0001
0000
0000
0000
1000
0001
0000
0000
0000
0000
0001
0000
1000
0000
0000
0001
0000
0000
0000
0000
1001
0000
0000
0000
0000
0001
0000
0000
,
1001
0000
0000
0000
1001
0000
0000
0000
1001
0000
0001
0000
1001
0000
0000
0002
,
1000
0003
0000
0000
1001
0000
0000
0000
1001
0000
0001
0000
1000
0000
0001
0000
,
1000
0000
0000
0000
0200
0000
0000
0000
0300
0000
0000
0000
1200
0000
0000
0000
0300
0000
0000
0000
0001
0000
0000
0000
1000
0000
0000
0000
0200
0000
0000
0000
0300
0000
0000
0000
1200
0000
0000
0300
0000
0000
1001
0000
0000
0000
0000
0000
,
1001
0000
0000
0000
0001
0000
0000
0000
1000
0001
0000
0000
0000
0000
0001
0000
1000
0000
0000
0001
0000
0000
0000
0000
1001
0000
0000
0000
0000
0001
0000
0000
,
1001
0000
0000
0000
1001
0000
0000
0000
1001
0000
0001
0000
1001
0000
1000
0002
,
1000
0003
0000
0000
1001
0000
0000
0000
1001
0000
0001
0000
1000
0000
1001
0000
,
1000
0200
0300
1200
0300
0001
1000
0200
0300
0200
0000
0300
,
1001
0000
0000
0000
0001
0000
0010
0100
1000
0000
0010
0000
0001
0000
0011
0000
,
0000
0000
0001
0000
0010
0000
1000
0010
0100
0000
1000
0000
0010
0000
1000
0002
,
1000
0003
0000
0000
0100
0000
0010
0000
0001
0000
0010
0000
1000
0000
1100
0000
,
0000
0000
1000
0000
0100
0000
1000
0100
0010
0000
0001
0000
0100
0000
1000
0000
,
1100
0000
0001
0000
0010
1000
0010
1001
,
0000
0000
0100
0000
0001
0000
0010
0000
0100
0000
1000
0000
0010
0000
1000
0002
,
1000
0003
0000
0000
0100
0000
0001
0000
0010
0000
0100
0000
1000
0000
0110
0000
,
0010
0000
1000
0000
0100
0000
1000
0100
0000
0000
0000
1000
0010
0000
1000
0000
,
0001
0000
2000
0000
0002
3000
0200
0003
2000
0300
0002
3000
0010
0003
0110
0000
,
0000
0000
2000
0000
0000
0000
3010
0002
0020
0003
2000
0030
0200
3000
1000
0300
,
1100
0000
0002
0000
0020
0003
2030
0000
0020
3000
0002
0030
0100
0003
0110
0000
,
0000
0000
0200
0000
0310
0002
0020
0003
2000
0030
0020
3000
0002
0030
0200
0003
,
2000
0000
0000
0000
0000
0000
0000
0000
0000
3300
0000
0000
0000
0000
0000
0000
;

//---------------dance-single - Blank----------------
#NOTES:
     dance-single:
     Blank:
     Hard:
     12:
     1.000,1.000,0.956,0.610,0.646,717.000,119.000,76.000,10.000,38.000:
0000
0000
0000
0000
,
0000
0000
0000
0000
,
0000
0000
0000
0000
,
1001
0000
0001
0010
0100
0000
0010
0000
1010
0000
0010
0000
0001
0000
2000
0000
,
0000
3000
0100
0000
0000
0000
1000
0100
0011
0000
0100
0000
0010
0000
0010
0000
,
0110
0100
1010
0100
0010
0001
0001
0012
,
0000
0003
1000
0000
0101
0000
1000
0000
0220
0000
0000
0330
2020
0000
0000
3030
,
1001
0001
0010
1000
0101
0010
0100
2000
,
0000
3000
0100
0000
0000
0000
0010
0001
0110
0000
0010
0000
0001
0000
0010
0000
,
0102
0000
1000
0003
1000
0000
0100
0000
0010
0000
0001
0000
0011
0000
0200
0000
,
0000
0300
1000
0000
0010
0000
0100
0000
1010
0000
0100
0000
0001
0000
0100
0001
,
0110
0001
0010
0100
0001
0010
1010
0200
,
0000
0300
0001
0000
0000
0000
1000
0100
1010
0000
0010
0000
1010
0000
0100
0000
,
0020
0130
1100
0100
0010
0100
0010
0002
,
0000
0003
0010
0000
1000
0000
0100
0000
0010
0000
0100
0011
1100
0000
0110
1001
,
0110
0010
0100
0010
1010
0100
0010
0200
,
0000
0300
0010
0000
0001
0000
0000
0000
1001
0000
0100
0000
1010
0000
1001
0010
,
1100
0010
0100
0001
0010
0001
1000
2000
,
0100
3010
0001
0001
0110
0000
0100
0100
1010
0000
1000
0100
1010
0000
0001
0000
,
0220
0330
2010
0000
0100
0000
3201
1010
,
1010
0000
0000
0000
0001
0000
0000
0000
0010
0000
0000
0310
1001
0000
1010
0001
,
0110
0000
0020
0000
1001
0000
1001
0101
,
0032
0000
0000
0000
1000
0000
0000
0000
1100
0000
0000
0100
1010
0000
0100
1000
,
0113
0000
0000
0010
0100
0000
1000
0010
0100
0000
0010
0001
1000
0000
0100
1000
,
0100
0001
0010
0100
0010
0100
1000
0010
0001
0000
0001
0010
1000
0000
1000
0000
,
0110
0000
0000
1000
0100
0000
0001
0010
0100
0001
0010
0001
0100
0001
0010
1000
,
0100
0010
0100
1000
0001
0100
1000
0010
0100
0010
0001
0010
1000
0000
0100
0000
,
0102
0000
0000
0000
0100
0000
0000
0000
0000
0100
0000
0000
0000
0000
0100
0000
0003
0000
0000
0100
0000
0000
0000
0000
0100
0000
0000
0000
0100
0000
0000
0000
,
1100
0000
0000
0000
0100
0000
0010
0000
0100
0000
1000
0000
0100
0000
0101
0010
,
1100
0010
0100
0010
1000
0100
0001
0010
,
0100
0100
0011
0000
0100
0010
1001
0000
0010
0010
1100
0000
0010
0100
0011
0000
,
0110
0001
0010
1000
0100
0001
0010
0100
,
0110
0000
0001
0000
0010
0000
0010
0000
0010
0000
0100
0000
1000
0000
0100
0010
,
1001
0010
0100
0010
0100
1000
0001
0010
,
0100
0100
1010
0000
0010
0100
1010
0000
1000
0010
0100
0001
1000
0100
0010
0001
,
1100
0001
1001
0100
0011
0100
1001
0100
,
0011
0000
0100
0000
0001
0000
0100
0000
0100
0000
1000
0000
1010
0000
1100
0010
,
1001
0100
0110
0010
1000
0100
0010
0100
,
0011
0000
0010
0000
1000
0000
0100
0000
0100
0010
1001
0000
0010
0000
0100
0000
,
0011
0010
1000
0100
0010
0100
0001
0010
,
1100
0000
0100
0000
0100
0000
1000
0000
0010
0000
0100
0000
1001
0000
0101
0010
,
1001
1000
0100
0100
0010
0001
0010
0100
,
1000
1000
0110
0000
0100
0100
0011
0000
0101
0010
1000
0001
0100
0010
1000
0010
,
0200
0000
0000
0300
2000
0010
0001
3000
0002
0000
0000
0000
1000
0000
0000
0000
,
2010
0000
0010
0000
3013
0002
0200
0013
,
0020
0300
1000
0000
0100
2000
0032
0010
,
0200
0000
3000
0000
0000
0000
0000
0000
1003
0000
0000
0000
0000
0000
0000
0000
1300
0000
0000
0000
0010
0001
0000
0000
0000
0001
0010
0000
0000
0000
0000
0000
,
0200
0000
0000
0000
0001
1000
0010
0000
0001
0000
0000
0000
0001
0010
0300
0000
,
0020
0000
0000
0000
0001
0000
0000
0000
0001
0000
0001
0000
0100
1030
0000
0000
,
0020
0000
0031
0010
1001
0100
1001
0010
,
0220
0000
0000
0000
1000
0000
0000
0000
1000
0001
1000
0001
1000
0001
1000
0001
,
1330
0100
0010
0001
0100
0010
0001
0100
1000
0010
0100
0010
0100
0001
0100
0001
,
1010
0100
0010
0001
0001
0010
0100
1000
0010
0100
0010
0100
0001
0010
1000
0010
,
0101
1000
0001
0010
0100
0010
1000
0100
0001
0010
1000
0100
1000
0100
0001
0100
,
1001
0010
0100
1000
1000
0100
0010
0100
0001
0010
0001
0010
0100
1000
0100
1000
,
0011
1000
0001
1000
0001
0100
0010
0001
0010
0100
0010
0100
1000
0001
0010
0100
,
0011
1000
0100
0010
1000
0010
0100
0001
0100
0001
0010
0001
0010
0100
0001
1000
,
0110
0001
0100
0010
0001
0100
1000
0010
0100
0001
1000
0100
0001
0010
0100
0001
,
0110
0001
0100
1000
0001
0100
0001
1000
0001
0010
0100
0010
0100
0010
0100
0000
,
2002
0000
3000
0100
0020
0000
0233
0000
,
2300
0000
0000
0000
0000
0000
0000
3000
0202
0000
0000
0303
2020
0000
0000
3030
,
1000
1000
1000
0010
0011
0001
1000
1000
,
0011
0000
0010
0000
1000
0000
0100
0000
0010
0000
0001
0000
1000
0000
1000
0100
,
0011
0010
1000
1000
0001
0001
0011
0100
,
1001
0000
0200
0010
0300
0000
0201
0000
0300
0010
0000
0000
1000
0000
0200
0000
0300
0000
0200
0000
0000
0301
0000
0000
,
1000
1000
1100
0010
0001
0001
0100
0002
,
1003
0000
0010
0000
0100
0000
0001
0010
1100
0000
0010
0000
0010
0000
0001
0000
,
0020
0130
0010
0001
1000
0100
0010
0001
,
1100
0010
0001
0000
0101
0010
0100
0000
1001
0100
1000
0000
0100
1000
0101
0000
,
1100
0010
0100
0010
0011
0001
1000
2000
,
3000
0000
0010
0000
0100
0000
0010
0010
1100
0000
0001
0000
0010
0000
1000
0000
,
1200
0310
0100
0001
0100
1000
0010
2000
,
3101
0010
0001
0000
1001
0010
0100
0000
0001
0001
0100
0001
1100
0010
0001
0100
,
1010
0010
0100
0010
1000
0100
0010
0001
,
1100
0000
0000
1000
0001
0000
0000
0000
1000
0000
0010
0000
0001
0000
1000
0001
,
2000
3001
1000
0100
0010
0100
0001
0100
,
0010
0010
1100
0000
0100
0010
0101
0000
0011
1000
0100
0001
0010
1000
0100
1000
,
0012
0000
0020
0000
2000
0003
0200
3000
1030
0000
1000
0300
0100
0000
0002
0000
,
0000
0000
0200
0000
0003
0000
1000
0010
0302
0000
0020
0000
1003
0000
0230
0000
,
0020
0000
2300
0000
0200
0030
30M2
M000
0020
0300
1M00
0003
100M
0030
02M0
0000
,
0000
0000
1000
0300
0010
0001
0200
0000
2000
0300
0002
3000
0023
0000
0230
0000
,
200M
00M0
000M
00M0
,
330M
0000
0000
0000
;
